#TITLE:The Games We Played;
#SUBTITLE:;
#ARTIST:Aspergian;
#TITLETRANSLIT:;
#SUBTITLETRANSLIT:;
#ARTISTTRANSLIT:;
#CREDIT:;
#BANNER:The Games We Played-bn.png;
#BACKGROUND:The Games We Played-bg.png;
#LYRICSPATH:;
#CDTITLE:cdtitle.png;
#MUSIC:The Games We Played.mp3;
#OFFSET:2.100;
#SAMPLESTART:252.106;
#SAMPLELENGTH:11.920;
#SELECTABLE:YES;
#BPMS:0.000=27.460,1.000=27.080,2.000=28.540,3.000=28.400,4.000=28.060,5.000=23.600,6.000=33.800,7.000=29.500,9.000=60.000,9.250=51.500,10.250=58.000,11.000=60.000,11.167=61.440,11.167=52.000,11.333=56.000,11.500=60.000,11.583=50.000,12.000=57.000,13.000=120.000,13.500=110.000,14.000=120.000,14.500=120.000,15.000=125.000,16.500=123.500,17.000=127.000,25.000=128.000,26.000=128.500,27.000=130.000,32.500=126.500,37.000=105.000,37.063=104.360,37.083=106.800,37.125=106.660,37.167=113.840,37.167=123.940,37.167=126.160,37.167=118.500,37.188=113.660,37.188=119.500,37.250=103.500,37.500=155.000,38.000=130.000,40.500=117.500,41.000=121.000,41.500=122.000,42.000=127.500,43.000=126.000,47.125=115.000,47.500=123.000,49.125=124.500,50.500=137.000,52.500=126.500,53.000=137.000,56.500=131.500,57.167=124.000,57.250=85.500,57.500=121.300,58.000=123.500,59.000=125.000,59.500=126.500,60.000=127.500,63.125=121.280,64.500=125.400,68.000=130.000,70.000=130.000,71.000=135.000,72.000=140.000,73.000=147.500,74.000=162.500,74.500=143.700,75.000=149.500,75.500=142.000,76.500=110.000,77.000=116.680,78.000=135.000,79.000=152.000,81.500=147.900,82.500=125.000,83.000=110.000,84.000=98.001,84.500=81.201,85.000=43.301,85.667=44.581,85.750=40.001,86.000=47.501,86.250=53.001,86.500=72.001,86.750=81.501,87.000=96.501,87.250=120.000,87.500=130.000,87.750=145.000,88.000=150.000,88.250=155.000,88.500=170.020,88.750=212.500,89.000=230.000,89.250=195.000,89.500=155.001,89.750=130.000,90.000=65.000,90.250=70.000,90.500=85.000,90.750=99.499,91.000=109.999,91.250=119.999,91.500=169.999,92.000=159.999,93.000=63.579,93.250=40.699,93.375=29.059,93.500=20.199,93.625=12.499,93.750=149.999,94.000=168.999,95.000=139.999,96.000=80.559,97.000=73.519,98.000=89.179,98.667=84.999,99.000=99.999,100.000=87.499,100.500=97.999,100.750=107.999,101.000=134.999,101.500=72.999,102.500=84.999,102.750=94.999,103.000=97.499,103.250=104.999,103.500=199.999,104.500=179.999,105.000=159.999,105.500=149.999,105.750=142.499,106.000=134.999,106.250=119.999,106.500=129.999,108.000=104.999,108.250=134.999,108.500=159.999,109.250=144.999,109.500=134.999,110.250=169.999,111.000=129.999,112.000=169.999,114.000=164.999,115.000=149.999,116.500=154.999,118.500=119.999,124.500=87.499,125.750=57.499,126.250=119.999,126.500=59.999,126.750=64.999,127.000=94.999,127.500=79.999,128.250=100.000,128.750=65.000,129.750=80.000,130.250=75.000,132.500=85.000,133.000=90.000,133.250=94.999,133.375=109.999,133.500=89.999,134.000=109.999,134.500=99.999,135.500=109.999,136.500=114.999,137.000=144.999,137.500=144.999,139.000=149.999,141.000=154.998,151.000=148.499,159.000=169.999,159.500=154.998,169.000=110.498,170.000=69.498,170.375=154.998,194.500=153.498,200.000=163.298,202.000=166.998,206.500=162.498,207.000=152.498,208.000=151.198,211.000=159.998,216.500=149.998,217.500=109.998,218.500=94.998,219.000=119.998,220.000=123.298,222.000=85.498,223.000=129.998,226.000=124.998,226.667=98.498,226.750=83.838,227.000=119.998,228.000=123.998,229.000=132.998,230.000=99.998,231.000=122.498,233.000=127.098,234.000=117.498,234.667=82.298,235.000=81.998,236.000=214.999,237.500=159.998,238.000=157.998,242.000=149.999,244.750=224.999,245.000=164.999,245.250=174.999,246.000=172.499,246.750=167.999,247.250=146.999,248.500=143.499,250.500=229.999,251.250=113.999,251.750=174.999,253.000=167.999,253.500=139.999,255.000=149.999,256.000=154.999,260.667=149.999,268.000=144.999,269.000=142.499,276.000=225.000,279.000=215.000,279.750=64.999,280.000=144.999,281.000=225.000,283.500=215.000,285.750=42.500,286.000=48.500,286.250=120.000,286.500=190.000,288.750=215.000,290.000=182.500,293.500=180.000,294.000=132.100,296.000=140.000,296.500=145.000,297.500=142.500,298.000=160.000,299.500=155.000,300.000=150.000,300.500=145.000,301.000=140.000,303.000=135.000,307.000=115.000,307.500=73.001,307.938=120.001,308.000=122.001,310.500=140.001,311.000=115.001,311.500=95.001,312.000=83.501,313.000=95.001,313.500=110.001,314.000=120.001,314.500=85.001,316.500=55.001,316.750=85.001,317.250=65.001,317.500=52.501,318.000=67.001,318.083=71.000,318.250=63.701,319.000=62.001,320.000=65.001,320.750=65.001,321.000=75.001,321.250=80.000,321.500=70.001,322.000=65.001,322.250=60.001,322.500=70.001,325.250=75.001,328.000=76.001,329.000=55.001,329.250=60.001,329.500=75.001,332.000=67.501,332.750=30.001,333.000=100.001,333.125=44.901,333.250=65.001,334.500=50.001,335.250=65.001,335.750=70.001,336.000=72.501,336.250=78.001,337.000=60.001,337.250=70.001,337.500=75.001,338.750=70.001,339.000=65.001,339.250=70.001,339.500=80.001,341.000=75.001,341.250=70.001,341.500=65.001,341.750=70.001,342.000=75.001,343.500=71.501,344.500=85.001,345.500=82.501,346.500=78.401,346.750=71.001,347.000=75.001,347.375=85.001,348.000=80.501,349.500=76.961,350.000=75.501,350.750=80.001,351.750=50.701,352.000=103.001,353.000=110.001,353.500=160.001,359.000=172.501,360.000=155.001,360.500=152.101,364.500=150.001,365.500=124.001,366.500=125.261,367.000=78.502,367.500=140.002,370.500=150.002,371.000=115.001,371.500=140.001,372.000=153.201,373.000=160.001,375.750=109.402,376.000=120.002,377.000=150.002,379.000=115.002,379.500=110.002,380.000=114.702,382.000=40.002,382.875=110.002,383.000=95.003,384.000=90.003,384.500=82.283,385.000=86.003,387.333=72.503,388.500=94.003,391.000=105.003,392.000=95.003,392.250=91.063,393.500=83.383,396.500=90.183,397.500=88.143,398.000=88.783,400.250=77.623,400.750=70.523,402.000=68.163,402.500=85.203,403.000=106.963,404.500=101.503,405.500=130.363,406.000=120.484,406.333=115.244,406.417=103.844,406.667=61.784,407.000=28.724,408.000=31.964,409.000=32.684,410.000=90.004,410.125=33.404,411.000=32.364,411.250=40.344,411.500=22.084,412.000=29.344,413.000=29.804,414.000=32.324,415.000=60.504,415.750=70.004,417.500=59.004,417.750=64.004,419.833=45.004,419.875=41.884,420.000=61.004,420.500=61.264,420.750=70.504,421.500=55.184,422.000=70.004,422.250=72.004,423.667=83.004,425.750=69.924,427.750=68.504,428.000=66.004,430.500=60.004,431.000=100.004,431.250=39.863,432.000=138.204,434.000=150.004,435.000=160.004,436.500=155.004,439.500=165.004,442.000=160.004,447.500=161.284,448.000=162.264,451.000=164.004,453.500=167.004,458.500=161.504,463.000=163.504,479.000=168.604,485.000=166.504,487.000=168.004,495.500=167.204,507.000=171.264,509.000=172.844,517.000=171.744,520.500=169.324,529.000=170.844,534.500=171.004,535.000=175.004,541.500=170.004,542.000=168.504,544.500=167.004,546.000=152.504,548.000=168.004,549.000=169.504,551.000=170.604,554.000=175.004,556.500=212.745,558.250=213.964,558.500=216.965,559.000=231.525,559.250=216.465,560.000=210.705,562.000=215.005,564.000=210.005,565.250=205.005;
#STOPS:;
#BGCHANGES:;
// cache tags:
#FIRSTBEAT:1.000;
#LASTBEAT:565.500;
#SONGFILENAME:Songs/Music V.I.P ^_^/The Games We Played (Bursurk Lurk)/The Games We Played.sm;
#HASMUSIC:1;
#HASBANNER:1;
#MUSICLENGTH:300.303;
// end cache tags

//---------------dance-single - ----------------
#NOTES:
     dance-single:
     :
     Hard:
     13:
     0.880,1.000,1.000,0.000,0.666,1413.000,436.000,0.000,0.000,0.000:
0000
1001
1000
0100
,
0010
0000
0000
0000
0000
0000
0000
0000
0000
0000
0000
0000
0000
0000
0000
1000
1001
0000
0000
0000
0000
0000
0000
0000
0000
0000
0000
0000
0000
0000
0000
0000
1000
0000
0000
0000
0000
0000
0000
0000
0000
0000
0000
0000
0000
0000
0000
0000
0100
0000
0000
0000
0000
0000
0000
0000
0000
0000
0000
0000
0000
0000
0000
0000
,
0010
0000
0000
0000
0000
0000
0000
0000
0000
0000
0000
0000
0000
0000
0000
0000
0000
0000
0000
0000
0000
0000
0000
0000
0000
0000
0000
0000
0000
0000
0000
0000
0000
0000
0000
0000
0000
0000
0000
0000
0000
0000
0000
0000
0000
0000
0000
0000
0001
0000
0000
0000
0000
0000
0010
0000
0000
0100
0000
0000
1000
0000
0000
0000
0000
0000
0000
0000
0000
0000
0000
0000
0000
0000
0000
0000
0000
0000
0000
0000
0000
0000
0000
0000
0000
0000
0000
0000
0000
0000
0000
0000
0000
0100
0000
0000
1000
0000
0000
0100
0000
0000
0010
0000
0000
0001
0000
0000
0000
0000
0000
0000
0000
0000
0000
0000
0000
0000
0000
0000
0000
0000
0000
0000
0000
0000
0000
0000
0000
0000
0000
0000
0000
0000
0000
0000
0000
0000
0000
0000
0100
0000
0000
0000
0001
0000
0000
0000
1000
0000
0000
0000
0010
0000
0000
0000
0000
0000
0000
0000
0100
0000
0000
0000
0000
0000
0000
0000
0001
0000
0000
0000
0110
0000
0000
0000
0000
0000
0000
0000
0000
0000
0000
0000
0000
0000
0000
0000
0000
0000
0000
0000
,
0110
0000
0000
0000
0000
0000
1100
0000
0000
0000
0000
0100
1000
0000
0000
0100
0000
0000
0010
0000
0000
0001
0000
0000
1000
0000
0000
0000
0000
0000
0100
0000
0000
0000
0000
0000
0010
0000
0000
0000
0000
0000
0001
0000
0000
0000
0000
0000
,
0100
0000
0000
0000
0000
0000
1000
0100
0010
0000
0000
0000
0000
0000
0000
0000
1001
0000
0000
0000
0000
0000
0000
0000
0100
0000
0000
0000
0000
0000
0000
0000
0010
0000
0000
0000
0000
0000
0000
0000
0001
0000
0000
0000
0000
0000
0000
0000
1010
0000
0000
0000
0000
0000
0000
0000
0000
0000
0000
0000
0000
0000
0000
0000
,
0011
0100
1000
1000
1000
1000
1000
0001
,
0100
0100
1000
1000
1000
1000
1000
0010
,
0100
0100
1010
1000
1000
1000
1100
0100
,
0100
0000
0000
0000
0000
0000
0000
0000
0000
0000
0000
0000
0000
0000
0000
0000
0000
0000
0000
0000
0000
0000
0000
0000
0100
0000
0000
0000
0000
0000
0000
0000
0000
0000
0000
0000
1000
0000
0000
0000
0000
0000
0000
0000
0001
0000
0000
0000
0010
0000
0000
0100
0000
0000
1000
0000
0000
0000
0000
0000
0000
0000
0000
0000
0000
0000
0000
0000
0000
0000
0000
0000
0010
0000
0000
0000
0000
0000
0000
0000
0000
0000
0000
0000
0000
0000
0000
0000
0000
0000
0000
0000
0000
0000
0000
0000
1010
0000
0000
0000
0000
0000
0000
0000
0000
0000
0000
0000
0000
0000
0000
0000
0000
0000
0000
0000
0000
0000
0000
0000
0010
0000
0000
0000
0000
0000
0000
0000
0000
0000
0000
0000
0000
0000
0000
0000
0000
0000
0000
0000
0000
0000
0000
0000
0110
0000
0000
0000
0000
0000
0000
0000
0000
0000
0000
0000
0000
0000
0000
0000
0000
0000
0000
0000
0000
0000
0000
0000
0010
0000
0000
0000
0000
0000
0000
0000
0000
0000
0000
0000
0000
0000
0000
0000
0000
0000
0000
0000
0000
0000
0000
0000
,
1010
0000
0000
0010
0000
0000
1000
0010
0100
0001
0000
0000
0101
0000
0000
0001
0000
0000
0001
0000
0000
0001
0000
0000
,
1001
0001
0101
0001
0001
0001
0011
0001
,
1001
0000
0000
0000
0000
0000
0000
0000
0000
0000
0000
0000
0000
0000
0000
0000
0000
0000
0000
0000
0000
0000
0000
0000
0001
0000
0000
0000
0000
0000
0000
0000
0000
0000
0000
0000
0000
0000
0000
0000
1000
0000
0000
0000
0000
0000
0000
0000
0100
0000
0000
0010
0000
0000
0001
0000
0000
0000
0000
0000
0000
0000
0000
0000
0000
0000
0000
0000
0000
0000
0000
0000
0010
0000
0000
0000
0000
0000
0000
0000
0000
0000
0000
0000
0000
0000
0000
0000
0000
0000
0000
0000
0000
0000
0000
0000
0010
0000
0000
0000
0000
0000
0000
0000
0000
0000
0000
0000
0000
0000
0000
0000
0000
0000
0000
0000
0000
0000
0000
0000
0010
0000
0000
0000
0000
0000
0000
0000
0000
0000
0000
0000
0000
0000
0000
0000
0000
0000
1000
0000
0000
0000
0000
0000
0001
0000
0000
0010
0000
0000
0100
0000
0000
0000
0000
0000
0000
0000
0000
0000
0000
0000
0000
0000
0000
0000
0000
0000
0001
0000
0000
0000
0000
0000
0000
0000
0000
0000
0000
0000
0000
0000
0000
0000
0000
0000
0000
0000
0000
0000
0000
0000
,
0001
0000
0000
0000
0000
0000
0000
0000
0001
0000
0000
0000
0000
0000
1000
0000
0100
0001
0010
0000
0000
0000
0000
0000
0100
0000
0000
0000
0000
0000
0000
0000
0100
0000
0000
0000
0000
0000
0000
0000
0100
0000
0000
0000
0000
0000
0000
0000
0100
0000
0000
0000
0000
0000
0000
0000
0100
0000
0000
0000
0000
0000
0000
0000
,
0100
1000
0100
0100
0101
0100
0110
0100
,
1100
0000
0000
0000
0000
0000
0000
0000
0000
0000
0000
0000
0000
0000
0000
0000
0000
0000
0000
0000
0000
0000
0000
0000
0100
0000
0000
0000
0000
0000
0000
0000
0000
0000
0000
0000
0000
0000
0000
0000
0000
0000
0000
0000
0001
0000
0000
0000
0000
0000
0000
0000
0000
0000
1000
0000
0000
0100
0000
0000
0010
0000
0000
0000
0000
0000
0000
0000
0000
0000
0000
0000
0100
0000
0000
0000
0000
0000
0000
0000
0000
0000
0000
0000
0000
0000
0000
0000
0000
0000
0000
0000
0000
0000
0000
0000
1100
0000
0000
0000
0000
0000
0000
0000
0000
0000
0000
0000
0000
0000
0000
0000
0000
0000
0000
0000
0000
0000
0000
0000
0100
0000
0000
0000
0000
0000
0000
0000
0000
0000
0000
0000
0000
0000
0000
0000
0000
0000
0000
0000
0000
0000
0000
0000
1100
0000
0000
0000
0000
0000
0000
0000
0000
0000
0000
0000
0000
0000
0000
0000
0000
0000
0000
0000
0000
0000
0000
0000
0100
0000
0000
0000
0000
0000
0000
0000
0000
0000
0000
0000
0000
0000
0000
0000
0000
0000
0000
0000
0000
0000
0000
0000
,
1010
0000
0000
0000
0000
0000
0000
0000
0010
0000
0000
0000
0000
0000
0000
0000
1001
0000
0000
0000
0000
0000
0000
0000
0001
0000
0000
0000
0000
0000
0000
0000
0001
0000
0000
0000
0000
0000
0000
0000
0001
0000
0000
0000
0000
0000
1000
0000
0001
0010
0100
0000
0000
0000
0000
0000
1000
0000
0000
0000
0000
0000
0000
0000
,
1000
1000
0101
0100
0010
0010
0001
0001
,
1000
0100
0010
0010
1100
0100
0110
0010
,
1010
1000
1001
0001
0101
0100
0110
0010
,
1010
0000
0000
1000
0000
0000
1001
0000
0000
0000
0100
0000
0100
0000
0000
0100
0000
0000
0011
0000
0000
0001
0000
0000
,
0001
0001
0011
0010
0010
0010
1001
0100
,
0100
0000
0000
0000
0000
0000
1000
0000
0000
0000
0000
0000
0101
0000
0000
0000
0000
0000
1000
0100
0011
0000
0000
0000
1000
0000
0000
0100
0000
0000
0010
0000
0000
0001
0000
0000
1000
0000
0000
0010
0000
0000
0100
0000
0000
0001
0000
0000
,
1000
0100
0010
0001
1000
0010
0100
0001
0110
0001
0010
0100
1000
0001
0100
0010
,
1000
0000
0001
0000
0010
0000
0100
0000
1000
0000
0100
0010
0001
0010
0100
0010
0001
0000
0000
0000
0000
0000
0000
0000
0011
0000
0000
0000
0011
0000
0000
0000
,
0011
0000
0000
0110
0000
0000
1100
0000
0101
1100
0000
0000
,
0001
0010
0100
1000
0001
0100
0010
0000
1000
0010
1000
0001
0010
0101
1000
0010
,
0100
0000
0001
0000
0010
0000
0100
0000
1000
0000
0010
0000
1100
0000
0001
0000
0010
0100
1000
0010
0000
0000
0010
0000
0100
0000
0001
0000
0110
0000
0000
0000
,
1000
0000
0000
0000
0000
0000
0000
0000
0000
0000
0000
0000
0100
0000
0000
0000
0000
0000
0000
0000
0000
0000
0000
0000
0010
0000
0000
0000
0000
0000
0000
0000
0000
0000
0000
0000
0001
0000
0000
0000
0000
0000
0000
0000
0000
0000
0000
0000
1000
0000
0000
0000
0000
0000
0000
0000
0000
0000
0000
0000
0010
0000
0000
0000
0000
0000
1000
0000
0000
0000
0000
0000
0100
0000
0000
0000
0000
0000
0000
0000
0000
0000
0000
0000
1000
0000
0000
0000
0000
0000
0000
0000
0000
0000
0000
0000
0011
0000
0000
0000
0000
0000
0000
0000
0000
0000
0000
0000
1100
0000
0000
0000
0000
0000
0000
0000
0000
0000
0000
0000
0000
0000
0000
0000
0000
0000
0000
0000
0000
0000
0000
0000
0000
0000
0000
0000
0000
0000
0000
0000
0000
0000
0000
0000
1000
0000
0000
0000
0000
0000
0000
0000
0000
0000
0000
0000
0000
0000
0000
0000
0100
0000
0000
0000
0000
0000
0000
0000
0000
0000
0000
0000
0000
0000
0000
0000
0010
0000
0000
0000
0000
0000
0000
0000
0000
0000
0000
0000
0000
0000
0000
0000
,
0101
0000
0010
0100
1001
0010
1000
0000
0100
0000
0010
0100
1001
0100
0000
0010
,
1100
0000
0000
0010
0000
0000
0001
0000
0000
0000
0000
0000
0000
0000
0000
0000
0000
0000
0100
0000
0000
0010
0000
0000
1001
0000
0000
0100
0000
0000
0010
0000
0000
0000
0000
0000
1100
0000
0000
0000
0010
0000
0000
0000
0001
0000
0000
0000
,
0010
0000
0000
0100
0000
0000
1001
0000
0010
0000
0100
0000
0010
0000
1000
0000
0100
0000
1000
0000
0000
0100
0000
0000
0011
0000
0000
0100
0000
0000
1000
0000
0000
0010
0000
0000
0100
0000
0010
0001
0000
0000
0010
0000
0000
0101
0000
0000
,
1000
0000
0110
0000
0011
0000
0100
1000
0010
0100
1000
0001
0010
0100
1000
0001
,
0010
0000
0000
0000
0000
0000
0000
0000
0000
0000
0000
0000
0100
0000
0000
0000
0000
0000
0000
0000
0010
0000
0000
0000
1000
0000
0000
0000
0000
0000
0000
0000
0000
0000
0000
0000
0001
0000
0000
0000
0000
0000
0010
0000
0000
0000
0000
0000
1100
0000
0000
0000
0000
0000
0000
0000
0000
0000
0000
0000
0010
0000
0000
0000
0000
0000
0000
0000
0000
0000
0000
0000
0001
0000
0000
0000
0000
0000
0000
0000
0000
0000
0000
0000
0100
0000
0000
0000
0000
0000
0000
0000
0000
0000
0000
0000
0011
0000
0000
0000
0000
0000
0000
0000
0000
0000
0000
0000
1000
0000
0000
0000
0000
0000
0000
0000
0000
0000
0000
0000
0101
0000
0000
0000
0000
0000
0000
0000
0010
0000
0000
0000
0000
0000
0000
0000
0100
0000
0000
0000
0000
0000
0000
0000
0010
0000
0000
0000
0000
0000
0000
0000
0000
0000
0000
0000
0000
0000
0000
0000
0001
0000
0000
0000
0000
0000
0000
0000
1100
0000
0000
0000
0000
0000
0000
0000
0000
0000
0000
0000
0000
0000
0000
0000
0010
0000
0000
0000
0000
0000
0000
0000
,
1001
0000
0000
0000
0000
0000
0000
0000
0010
0000
0000
0000
0000
0000
0000
0000
0000
0000
0100
0000
0000
0000
0000
0000
0011
0000
0000
0000
0000
0000
0000
0000
0000
0000
0000
0000
0000
0000
0000
0000
0000
0000
0000
0000
0000
0000
0000
0000
1000
0000
0000
0000
0000
0000
0100
0000
0000
0000
0000
0000
0010
0000
0000
0000
0000
0000
0000
0000
0000
0000
0000
0000
0001
0000
0000
0000
0000
0000
0000
0000
0000
0000
0000
0000
0010
0000
0000
0000
0000
0000
0100
0000
0000
0000
0000
0000
1000
0000
0000
0000
0000
0000
0000
0000
0000
0000
0000
0000
0101
0000
0000
0000
0000
0000
0000
0000
0000
0000
0000
0000
1010
0000
0000
0000
0000
0000
0000
0000
0000
0000
0000
0000
0000
0000
0000
0000
0000
0000
0000
0000
0000
0000
0000
0000
0100
0000
0000
0000
0000
0000
0000
0000
0000
0000
0000
0000
0000
0000
0000
0000
0000
0000
0000
0000
0000
0000
0000
0000
0010
0000
0000
0000
0000
0000
0000
0000
0000
0000
0000
0000
1000
0000
0000
0000
0000
0000
0010
0000
0000
0000
0000
0000
,
0100
0000
1000
0100
0010
0000
0010
0100
1000
0000
0100
0010
1001
0000
0010
0000
,
0110
0000
0000
0010
1100
0000
0110
0000
0011
0000
0100
0000
1010
0000
0100
0000
,
0101
0000
0001
0010
0000
0010
0101
1000
,
1100
0000
0000
0000
0000
0000
0000
0000
0100
0000
0000
0000
0100
0000
0000
0100
0001
0000
0000
0000
0000
0000
0000
0000
0110
0000
0000
0000
0000
0000
0000
0000
,
1100
0000
0000
0000
0000
0000
0000
0000
0010
0000
0000
0000
0000
0000
0000
0000
0010
0000
0000
0000
0000
0000
0000
0000
0010
0000
0000
0000
0000
0000
0000
0100
,
1000
0000
0001
0000
0110
0000
0001
0110
,
1100
0000
0000
0000
0000
0000
0000
0000
0100
0000
0000
0000
0000
0000
0000
0000
0110
0000
0000
0000
0000
0000
0000
0000
0010
0000
0000
0000
0000
0000
0000
0000
0011
0000
0000
0000
0000
0000
0000
0000
0001
0000
0000
0000
0000
0000
0000
0000
1001
0000
0000
0000
0000
0000
0000
0000
0100
0000
0000
0000
0001
0000
0010
0100
,
1000
0000
0000
0000
0000
0000
0000
0000
0100
0000
0000
0000
0000
0000
0000
0000
1000
0010
0000
0000
0000
0000
0000
0000
0100
0000
0000
0000
0000
0000
0000
0000
,
1001
0000
0000
0000
0000
0000
0000
0000
0100
0000
0000
0000
0000
0000
0000
0000
0100
0000
0000
0000
0100
0001
0000
0000
1100
0000
0000
0000
0000
0000
0000
0000
,
0010
1100
0010
0101
0010
1001
0100
0010
,
0000
0010
1100
0010
0101
0000
1001
0010
,
1100
0011
1010
0100
1001
0010
1100
0001
,
0100
0000
0000
0000
0000
0000
0000
0000
0010
0000
0000
0000
0000
0000
0000
0000
1000
0000
0000
0000
0000
0000
0000
0000
0010
0000
0000
0000
0000
0000
0000
0000
0100
0000
0000
0000
0000
0000
0000
0000
1000
0000
0000
0000
0001
0000
0000
0000
0010
0100
1000
0000
0000
0000
0000
0000
0100
0000
0000
0000
0000
0000
0000
0000
,
0001
0010
0101
1000
1001
0100
0011
1000
,
0101
0100
0011
1000
0101
0010
1001
0100
,
0010
0000
0000
1000
0100
0000
0010
0001
0000
1000
0000
0000
0011
0000
0000
0100
0000
0000
1001
0000
0000
0010
0000
0000
,
0100
1000
0001
0100
0011
1000
0101
0010
,
0101
1100
0011
0100
1001
0010
0011
1000
,
0001
0100
0010
1000
0011
0100
1001
0010
,
0101
1010
0101
1000
0101
0010
1100
1000
,
0110
0000
0000
0100
0000
0000
0011
0000
0000
1000
0000
0000
0101
0000
0000
0010
0000
0000
1001
0000
0000
0000
0100
0000
,
1100
0000
0000
0000
0100
0000
1100
0000
0000
0000
0100
0000
1001
0000
0000
0110
0000
0000
0101
0000
0000
0000
0100
0000
,
0100
0000
0100
0100
0000
0100
0101
0000
0100
1100
0000
0100
,
0101
0000
0000
0000
0110
0000
0101
0000
0000
0000
0110
0000
0101
0000
0000
0110
0000
0000
1010
0000
0000
0000
1000
0000
,
1000
0000
1000
1000
0000
1000
1000
0000
1000
0000
0000
0000
,
0001
0010
0100
1000
0001
0100
0010
1000
0100
0000
0010
0001
0000
0010
0100
1000
,
0010
0000
0000
0100
0010
0000
0001
0000
0010
0000
0100
0000
1000
0000
0010
0000
,
0100
0000
0010
1000
0100
1000
0100
0010
0001
0000
0010
0001
0000
0010
0100
0010
,
1000
0000
0010
0001
0000
0010
0000
0100
0000
1000
0100
0010
0001
0010
0000
1000
,
0110
0000
0100
1010
0011
0000
0110
1000
,
0011
0000
0000
0101
0000
0000
1010
0000
1100
0000
0000
0000
1001
0000
0000
0000
,
0011
0000
0000
0101
0000
0000
1010
0000
0110
0000
0000
1010
0000
0000
1100
0000
,
0101
0000
0000
0100
0000
0000
0100
0000
0100
0000
1100
0000
1010
0000
0101
0000
,
0011
0000
0000
0100
0000
0000
1001
0000
0110
0000
0000
0011
0000
0000
1010
0000
,
1100
0000
0000
0010
0000
0000
0001
0000
1100
0000
0000
0011
0000
0101
0000
0000
,
1000
0010
0100
0001
1000
0100
0010
0001
0010
0100
1000
0001
1000
0100
0010
0001
,
0010
0000
0000
0000
0000
0000
0100
0000
0000
0000
0000
0000
0001
0000
0000
0010
0000
0000
0100
0000
0000
1000
0000
0000
0001
0000
0000
0100
0000
0000
0010
0000
0000
1000
0000
0000
0100
0000
0000
0010
0000
0000
0001
0000
0010
0000
0100
0000
,
1000
0000
0000
0110
0000
0000
0000
0000
0000
0000
0000
0000
0000
0000
0001
0010
0100
1000
0001
0010
0000
0000
0000
0000
1000
0000
0000
0001
0000
0000
0010
0000
0000
0100
0000
0000
1000
0000
0000
0100
0000
0000
1000
0000
0000
0000
0000
0000
,
1000
0000
0010
0100
0000
0000
1001
0000
0000
0110
0000
0000
0000
0000
0000
0000
0000
0000
0000
0000
0000
0000
0000
0000
1001
0000
0000
0000
0000
0000
0010
0000
0000
0000
0000
0000
0100
0000
0000
0000
0000
0000
0100
0000
0000
0000
0000
0000
,
1000
0101
0010
1001
0110
0000
1010
0000
,
0001
0000
0010
1001
0100
1000
0100
1010
0001
0010
0100
0000
1000
0000
0100
0000
,
1010
0000
0001
0000
1001
0000
1100
0010
0001
0000
0010
0000
0101
0000
1000
0000
,
0010
0000
0000
0000
0000
0000
0000
0000
0000
0000
0000
0000
0000
0000
0000
0000
0000
0000
1000
0000
0000
0000
0000
0000
0001
0000
0000
0000
0010
0000
0000
0000
0100
0000
0000
0000
0000
0000
0000
0000
0000
0000
0000
0000
0000
0000
0000
0000
0011
0000
0000
0000
0000
0000
0000
0000
0000
0000
0000
0000
0000
0000
0000
0000
0000
0000
0000
0000
0000
0000
0000
0000
0010
0000
0000
0000
0000
0000
0000
0000
0000
0000
0000
0000
0000
0000
0000
0000
0000
0000
0000
0000
0000
0000
0000
0000
0101
0000
0000
0000
0000
0000
0000
0000
0000
0000
0000
0000
0000
0000
0000
0000
0000
0000
0000
0000
0000
0000
0000
0000
1000
0000
0000
0000
0000
0000
0000
0000
0000
0000
0000
0000
0000
0000
0000
0000
0000
0000
0000
0000
0000
0000
0000
0000
0010
0000
0000
0000
0000
0000
0000
0000
0000
0000
0000
0000
0000
0000
0000
0000
0000
0000
0000
0000
0000
0000
0000
0000
0100
0000
0000
0000
0000
0000
0000
0000
0000
0000
0000
0000
0000
0000
0000
0000
0000
0000
0000
0000
0000
0010
0000
0000
,
0001
0000
0010
0100
1001
0100
0010
0101
1000
0000
0100
0000
0101
0000
0100
0000
,
1000
0000
0000
0000
0000
0000
0000
0000
0000
0000
0000
0000
0001
0000
0000
0000
0000
0000
0010
0000
0000
0000
0000
0000
0101
0000
0000
0000
0000
0000
0010
0000
0101
0000
1000
0000
0010
0000
0000
0101
0000
0000
1000
0000
0000
0101
0000
0000
,
0010
0000
0000
0000
0000
0000
0000
0000
0000
0000
0000
0000
1001
0000
0000
0000
0000
0000
0000
0000
0000
0000
0000
0000
0010
0000
0000
0000
0000
0000
0000
0000
0000
0000
0000
0000
0100
0000
0000
0000
0000
0000
0000
0000
0000
0000
0000
0000
0010
0000
0000
0000
0000
0000
0000
0000
0000
0000
0000
0000
1001
0000
0000
0000
0000
0000
0000
0000
0000
0000
0000
0000
0110
0000
0000
0000
0000
0000
0000
0000
0000
0000
0000
0000
0000
0000
0000
0000
0000
0000
0000
0000
0000
0000
0000
0000
1000
0000
0000
0000
0100
0000
0000
0000
0000
0000
0000
0000
0010
0000
0000
0000
0000
0000
0000
0000
0000
0000
0000
0000
0000
0000
0000
0000
0000
0000
0000
0000
0000
0000
0000
0000
0000
0000
0000
0000
0000
0000
0000
0000
0000
0000
0000
0000
0001
0000
0000
0000
0000
0000
0000
0000
0000
0000
0000
0000
0110
0000
0000
0000
0000
0000
0000
0000
0000
0000
0000
0000
0000
0000
0000
0000
0000
0000
0100
0000
0000
0000
0000
0000
1010
0000
0000
0000
0000
0000
0000
0000
0000
0000
0000
0000
,
0001
0000
0000
0000
0000
0000
0100
0000
0011
0000
0000
0000
1000
0000
0000
0000
0100
0000
0000
0000
0010
0000
0000
0000
0101
0000
0000
0000
1000
0000
0000
0000
0010
0000
0000
0000
0100
0000
0000
0000
0001
0010
0100
0000
1001
0000
0000
0000
0010
0000
0000
0000
0100
0000
0000
0000
0001
0000
0000
0000
1010
0000
0000
0000
,
0100
0000
1000
0000
0011
0000
0000
0000
0000
0001
1010
0000
0100
0000
1000
0000
0100
0000
0100
0000
0010
0000
0101
0000
0110
0000
1001
0000
0010
0000
0100
0000
,
0100
0000
0000
1000
0000
0000
0101
0000
0000
1000
0000
0000
0101
0000
0000
0011
0000
0000
0100
0000
0000
1000
0000
0000
1000
0000
0000
0110
0000
0000
0001
0000
0000
0100
0000
0000
0011
0000
1000
0110
0000
0000
0010
0000
0000
1000
0000
0000
,
1000
0000
0000
0000
0011
0000
0000
0000
0100
0000
0000
0000
0101
0000
0000
0000
1000
0100
0010
0000
0001
0000
0000
0000
0010
0000
0000
0000
0010
0000
0000
0000
1000
0000
0000
0000
0010
0000
0000
0000
0100
0000
0000
0000
0000
0000
0000
0000
0001
0010
0000
0100
1000
0000
0000
0000
0100
0000
0000
0000
1000
0000
0000
0000
,
1000
0100
0010
0001
0010
0101
1000
0010
0100
1001
0010
1100
0110
0011
0100
1000
,
0101
0000
0010
0000
0001
0000
1100
0000
0010
0000
1001
0000
0010
0000
1100
0000
0001
0000
0010
0000
0100
0000
1010
0000
0011
0000
0000
0100
1001
0000
0010
0000
,
0100
0000
0000
0000
0000
0000
0000
0000
0000
0000
0000
0000
1000
0000
0000
0000
0000
0000
0000
0000
0000
0000
0000
0000
0100
0000
0000
0000
0000
0000
0000
0000
0000
0000
0000
0000
0010
0000
0000
0000
0000
0000
0000
0000
0000
0000
0000
0000
0001
0000
0000
0000
0000
0000
0000
0000
0000
0000
0000
0000
0100
0000
0000
0000
0000
0000
0000
0000
0000
0000
0000
0000
0011
0000
0000
0000
0000
0000
0000
0000
0000
0000
0000
0000
1000
0000
0000
0000
0000
0000
0000
0000
0000
0000
0000
0000
0100
0000
0000
0000
0000
0000
0000
0000
0000
0000
0000
0000
0010
0000
0000
0000
0000
0000
0000
0000
0000
0000
0000
0000
1001
0000
0000
0000
0000
0000
0000
0000
0000
0000
0000
0000
0010
0000
0000
0000
0000
0000
0000
0000
0000
0000
0000
0000
0101
0000
0000
0000
0000
0000
0000
0000
0000
0000
0000
0000
0000
0000
0000
0000
0000
0000
0000
0000
1000
0000
0000
0000
0100
0000
0000
0010
0000
0000
0001
0000
0000
0000
0000
0000
0000
0000
0000
0000
0000
0000
0000
0000
0000
0000
0000
0000
,
0010
0101
1001
0010
0100
1001
0010
0101
1000
0101
0010
0001
0000
0000
0110
1001
,
0101
1000
0011
0100
0001
1010
0100
1001
,
0001
0100
0011
1000
0010
1100
0001
0000
,
0011
0100
0110
1000
0011
0100
0110
1000
,
0011
0100
1010
0100
0101
0010
1001
0010
,
0100
0001
0010
0100
1000
0010
0100
1001
,
0010
0000
0000
0000
0000
0000
0100
0000
0000
0000
0000
0000
1000
0000
0000
0000
0000
0000
0001
0000
0000
0000
0000
0000
0100
0000
0000
0000
0000
0000
0010
0000
0000
0000
0000
0000
1000
0000
0000
0000
0001
0000
0010
0100
1000
0000
0000
0000
,
0100
0010
0010
1000
0100
1001
0010
0101
,
1001
0000
0000
0000
0000
0000
0000
0000
0100
0000
0000
0000
0000
0000
0000
0000
0010
0000
0000
0000
0000
0000
0000
0000
0001
0000
0000
0000
0000
0000
0000
0000
0010
0000
0000
0000
0000
0000
0000
0000
0000
0000
0000
0000
0000
0000
0000
0010
0100
0000
0000
0000
0000
0000
0000
0000
1000
0000
0000
0000
0000
0000
0000
0000
,
0010
0000
0000
0000
0000
0000
0100
0000
0000
0010
0000
0000
0001
0000
0000
0000
0000
0000
0000
0000
0000
0000
0000
0000
0010
0000
0000
0000
0000
0000
0000
0000
0000
0000
0000
0000
0100
0000
0000
0000
0010
0000
0000
0000
0001
0000
0000
0000
,
0100
1000
0001
0000
0010
0000
0100
0000
1000
0000
1001
0000
0010
0000
0001
0000
,
0010
0100
1000
0000
0100
0000
0010
0000
0001
0000
0110
0000
1000
0000
0010
0000
,
0100
0000
0010
0000
0000
0000
0001
0000
0000
0000
0000
0000
0010
0000
0000
0000
0000
0000
0100
0000
0000
0000
0000
0000
1000
0000
0000
0000
0000
0000
0100
0000
0000
0010
0000
0000
0100
0000
0000
0001
0000
0000
1000
0000
0000
0001
0000
0000
,
1000
0000
0000
0000
0000
0000
0000
0000
0000
0000
0000
0000
0100
0000
0000
0000
0000
0000
0000
0000
0000
0000
0000
0000
0001
0000
0000
0000
0000
0000
0010
0000
0000
0100
0000
0000
1000
0000
0000
0000
0000
0000
0000
0000
0000
0000
0000
0000
0010
0000
0000
0000
0000
0000
0000
0000
0000
0000
0000
0000
0000
0000
0000
0000
0000
0000
0000
0000
0000
0000
0000
0000
0100
0000
0000
0000
0000
0000
0000
0000
0000
0000
0000
0000
0000
0000
0000
0000
0000
0000
0000
0000
0000
0000
0000
0000
1000
0000
0000
0000
0000
0000
0000
0000
0100
0000
0000
0000
0000
0000
0000
0000
0000
0000
0000
0000
0000
0000
0000
0000
0010
0000
0000
0000
0000
0000
0000
0000
0000
0000
0000
0000
0000
0000
0000
0000
0000
0000
0000
0000
0000
0000
0000
0000
0001
0000
0000
0000
0000
0000
0000
0000
0000
0000
0000
0000
0000
0000
0000
0000
0000
0000
0000
0000
0000
0000
0000
0000
0010
0000
0000
0000
0000
0000
0000
0000
0000
0000
0000
0000
0000
0000
0000
0000
0000
0000
0000
0000
0000
0000
0000
0000
,
0100
0000
0000
0000
0000
0000
1000
0000
0000
0000
0000
0000
0010
0000
0000
0000
0000
0000
0100
0000
0000
0000
0000
0010
0001
0000
0000
0000
0010
0000
0000
0000
0100
0000
0000
0000
1001
0000
0000
0000
0000
0000
0000
0000
0000
0000
0000
0000
,
1010
0000
0000
0000
0000
0000
0000
0000
0000
0000
0000
0000
0000
0000
0000
0000
1100
0000
0000
0000
0000
0000
0000
0000
0000
0000
0000
0000
0000
0000
0000
0000
1000
0100
0010
0000
0000
0000
0000
0000
0000
0000
0000
0000
0000
0000
0000
0000
1010
0000
0000
0000
0001
0000
0000
0000
0110
0000
0000
0000
0000
0000
0000
0000
,
1100
0000
0000
0000
0000
0000
0000
0000
0100
0000
0000
0000
1010
0000
0000
0000
0000
0000
0000
0000
0000
0000
0000
0000
0001
0000
0000
0000
0000
0000
0000
0000
0000
0000
0000
0000
1000
0000
0000
0100
0000
0000
0010
0000
0000
0001
0000
0000
,
1000
0000
0000
0010
0000
0000
0100
0000
0000
0001
0000
0000
0010
0000
0000
0100
0000
0000
1000
0000
0000
0001
0000
0000
0100
0000
0000
0010
0000
0000
1000
0000
0000
0100
0000
0000
0010
0000
0000
0001
0000
0000
1000
0000
0100
0000
0010
0000
,
0100
0000
0000
0010
0000
0000
0001
0000
0000
0100
0000
0000
0010
0000
0000
1000
0000
0000
0100
0000
0000
0010
0000
0000
0010
0000
0000
0100
0000
0000
1000
0000
0000
0100
0000
0000
0100
0000
0000
0010
0000
0000
0100
0000
0001
0000
0000
0000
,
1000
0000
0100
0000
0010
0000
0001
0000
1000
0000
0010
0000
0100
0000
0001
0000
0100
0000
0010
0000
1000
0000
0001
0000
0010
0000
0100
0000
1000
0000
0100
0010
,
0001
0000
0000
0010
0000
0000
0100
0000
0000
1000
0000
0000
0010
0000
0000
0100
0000
0000
0001
0000
0000
0010
0000
0000
0100
0000
0000
1000
0000
0000
0010
0000
0000
0100
0000
0000
0001
0010
0100
1000
0000
0000
0000
0000
0000
0000
0000
0000
,
1000
0100
0010
0001
0000
0000
0010
0000
0000
0100
0000
0000
1000
0000
0000
0010
0000
0000
0100
0000
0000
0001
0000
0000
,
0100
0000
0010
0000
1000
0000
0001
0000
0010
0100
0001
0000
1000
0000
0100
0000
,
0010
0100
0000
0001
0000
0000
1000
0000
0000
0010
0000
0000
0100
0000
0000
0001
0000
0000
1000
0000
0000
0100
0000
0000
,
0010
0001
0001
0010
0100
0001
0001
0100
,
0010
1000
0001
0100
0010
1000
0001
0010
,
0100
0000
0000
1000
0000
0000
0100
0000
0000
1000
0000
0001
0000
0000
0000
0100
0000
0000
1000
0000
0000
0010
0000
0000
,
0100
0010
0001
0000
1000
0000
0010
0000
0100
0000
0001
0000
1000
0000
0100
0000
,
0010
0001
0001
0010
0100
0001
0011
0101
,
1010
1100
0011
0101
1010
1100
0011
0101
,
1010
1100
0011
0101
1010
1100
0101
0011
,
1100
1010
0101
0011
1100
1010
0101
0011
,
1100
1010
0101
0011
1100
1010
0011
0101
,
1010
1100
0011
0101
1010
1100
0011
0101
,
1010
1100
0011
0101
1010
1100
0011
1010
,
0101
1100
0011
1010
0101
1100
0011
1010
,
0101
1100
0011
1010
0101
1100
0101
1100
,
0011
1010
0101
1100
0011
1010
0101
1100
,
0011
1010
0101
1100
0011
1010
0101
1100
,
0011
1001
0101
1100
0011
1001
0101
1100
,
0011
1001
0101
1100
0011
1001
0011
1010
,
0101
1100
0011
1010
0101
1100
0011
1010
,
0101
1100
0011
1010
0101
1100
1100
1010
,
0101
0011
1100
1010
0101
0011
1100
1010
,
0101
0011
1100
1010
0101
0011
1010
1100
,
0110
1001
0101
1100
0110
1001
0101
1100
,
0110
1001
0101
1100
0110
1001
0101
0011
,
1010
1001
1001
0100
1001
0100
1010
0101
,
1000
0110
1000
0010
1000
0010
1000
1010
,
1000
0101
0010
1000
0011
0000
1010
0101
,
1100
0011
1000
1000
1000
1000
0011
0101
,
1010
1100
0011
0101
1010
0101
0011
0101
,
1010
0000
0001
0010
0100
1000
0001
0100
0001
0100
0010
0100
0001
1000
0001
0010
,
0100
1000
0001
0100
0010
1000
0100
0010
0001
1000
0010
0100
0001
1000
0100
0010
,
0001
0010
0100
1000
0001
1000
0110
0000
0000
0000
0000
0000
0000
0000
0000
0000
;
